osu file format v14

[General]
AudioFilename: 03. Shining glowwww.mp3
AudioLeadIn: 1500
PreviewTime: 60565
Countdown: 0
SampleSet: Soft
StackLeniency: 0.7
Mode: 0
LetterboxInBreaks: 1
WidescreenStoryboard: 0

[Editor]
Bookmarks: 140423,149628
DistanceSpacing: 0.9
BeatDivisor: 4
GridSize: 4
TimelineZoom: 1.4

[Metadata]
Title:Shining glow
TitleUnicode:Shining glow
Artist:Naru Sekiya
ArtistUnicode:関谷なる
Creator:Setz
Version:Easy
Source:ハナヤマタ よさこいLive
Tags:Hanayamata 上田麗奈 Ueda Reina Yosakoi song character A_Mystery A Mystery Series 壱 なる
BeatmapID:765688
BeatmapSetID:343628

[Difficulty]
HPDrainRate:3
CircleSize:3
OverallDifficulty:3
ApproachRate:3
SliderMultiplier:0.9
SliderTickRate:1

[Events]
//Background and Video events
0,0,"naru.jpg",0,0
//Break Periods
2,140623,148529
//Storyboard Layer 0 (Background)
//Storyboard Layer 1 (Fail)
//Storyboard Layer 2 (Pass)
//Storyboard Layer 3 (Foreground)
//Storyboard Sound Samples

[TimingPoints]
-31,340.909090909091,4,2,5,70,1,0
57412,-100,4,2,5,20,0,0
59969,-100,4,2,5,70,0,0
61332,-100,4,2,5,70,0,1
72156,-100,4,2,5,70,0,0
72241,-100,4,2,5,70,0,1
85878,-100,4,2,5,70,0,0
137866,-100,4,2,5,20,0,0
140423,-100,4,2,5,70,0,0
162241,-100,4,2,5,70,0,1
173065,-100,4,2,5,70,0,0
173150,-100,4,2,5,70,0,1
186787,-100,4,2,5,70,0,0
200423,-100,4,2,5,20,0,0
204173,-100,4,2,5,10,0,0
204599,-100,4,2,5,5,0,0

[Colours]
Combo1 : 0,128,192
Combo2 : 181,106,255
Combo3 : 255,255,128
Combo4 : 255,128,255
Combo5 : 255,102,102

[HitObjects]
19,275,1332,6,0,B|43:327|109:345|162:310|174:260,1,180,2|2,0:0|0:0,0:0:0:0:
183,202,2355,1,2,0:0:0:0:
236,141,2696,2,0,B|345:118|345:118|420:142,1,180,2|2,0:0|0:0,0:0:0:0:
500,273,4059,6,0,B|391:296|391:296|316:272,1,180,2|2,0:0|0:0,0:0:0:0:
248,250,5082,1,2,0:0:0:0:
223,172,5423,2,0,B|173:188|147:243|166:296|206:320,1,180,2|2,0:0|0:0,0:0:0:0:
275,348,6446,1,2,0:0:0:0:
356,347,6787,6,0,B|406:331|432:276|413:223|373:199,1,180,2|2,0:0|0:0,0:0:0:0:
243,113,8150,1,2,0:0:0:0:
92,172,8832,2,0,L|79:261,1,90,2|2,0:0|0:0,0:0:0:0:
7,299,9514,6,0,B|37:356|115:367|167:320|173:260|147:219,1,225,2|0,0:0|0:0,0:0:0:0:
222,147,10878,6,0,B|267:139|312:143,1,90,2|0,0:0|0:0,0:0:0:0:
329,222,11559,2,0,B|369:212|396:177|399:136|382:104,1,135,2|2,0:0|0:0,0:0:0:0:
325,63,12412,2,0,B|249:53|176:73,1,135,2|2,0:0|0:0,0:0:0:0:
68,175,13605,6,0,L|61:270,1,90,2|0,0:0|0:0,0:0:0:0:
139,285,14287,2,0,L|151:127,1,135,2|2,0:0|0:0,0:0:0:0:
189,80,15139,2,0,B|247:104|259:42|337:72,1,135,2|0,0:0|0:0,0:0:0:0:
396,91,15991,1,0,0:0:0:0:
339,148,16332,6,0,L|347:237,1,90,2|0,0:0|0:0,0:0:0:0:
405,293,17014,2,0,B|378:323|335:329|300:311|282:282,1,135,2|2,0:0|0:0,0:0:0:0:
233,226,17866,1,2,0:0:0:0:
186,160,18207,2,0,L|197:20,1,135,2|0,0:0|0:0,0:0:0:0:
277,20,19059,6,0,L|270:117,1,90,2|0,0:0|0:0,0:0:0:0:
303,183,19741,2,0,B|321:224|364:245|408:236|436:210,1,135,0|2,0:0|0:0,0:0:0:0:
379,151,20594,1,2,0:0:0:0:
453,119,20934,2,0,B|435:78|392:57|348:66|320:92,1,135,2|0,0:0|0:3,0:0:0:0:
262,105,21787,6,0,B|209:112|158:101|114:78,1,135,2|2,0:0|0:0,0:0:0:0:
56,51,22639,1,2,0:0:0:0:
62,131,22980,2,0,B|63:200|37:263,1,135,2|2,0:0|0:0,0:0:0:0:
10,340,23832,2,0,B|45:352|81:339|102:313,1,90,2|0,0:0|0:0,0:0:0:0:
150,263,24514,5,2,0:0:0:0:
217,309,24855,2,0,B|263:313|308:310,1,90,,,0:0:0:0:
355,376,25537,2,0,B|389:350|400:305|384:266|354:244,1,135,2|8,0:0|0:0,0:0:0:0:
310,198,26389,2,0,L|301:52,1,135,8|8,0:1|0:0,0:0:0:0:
228,28,27241,5,2,0:0:0:0:
155,63,27582,2,0,L|146:197,1,135,10|2,0:1|0:0,0:0:0:0:
79,243,28434,2,0,B|105:280|152:292|194:274|215:241,1,135,0|8,0:0|0:1,0:0:0:0:
271,224,29287,2,0,B|317:212|363:216,1,90,8|8,0:1|0:1,0:0:0:0:
438,236,29969,6,0,L|451:142,1,90,2|10,0:0|0:1,0:0:0:0:
508,90,30650,2,0,B|480:61|437:55|401:74|382:103,1,135,8|2,0:1|0:0,0:0:0:0:
343,162,31503,1,2,0:0:0:0:
267,131,31844,2,0,L|127:137,1,135,2|8,0:0|0:1,0:0:0:0:
55,162,32696,5,2,0:0:0:0:
60,81,33037,2,0,B|108:58|108:58|202:55,1,135,10|2,0:1|0:0,0:0:0:0:
268,75,33889,1,0,0:0:0:0:
219,139,34230,2,0,B|252:164|296:164|329:139|343:106,1,135,0|8,0:0|0:1,0:0:0:0:
376,49,35082,1,10,0:1:0:0:
425,113,35423,5,2,0:0:0:0:
474,49,35764,2,0,B|507:74|518:118|502:156|473:177,1,135,10|2,0:1|0:0,0:0:0:0:
417,214,36616,2,0,B|348:207|282:225,1,135,8|8,0:0|0:1,0:0:0:0:
207,253,37469,2,0,B|173:264|138:264|106:255,1,90,8|8,0:1|0:1,0:0:0:0:
40,233,38150,6,0,L|31:38,1,180,4|8,0:0|0:0,0:0:0:0:
151,33,39344,2,0,B|197:14|246:12|290:25,1,135,10|0,0:1|0:0,0:0:0:0:
363,41,40196,2,0,L|369:138,1,90,8|0,0:0|0:0,0:0:0:0:
423,190,40878,6,0,B|384:225|323:220|287:177|286:130,1,180,10|8,0:1|0:0,0:0:0:0:
209,43,42071,2,0,B|164:20|112:26|75:53,1,135,10|2,0:1|0:0,0:0:0:0:
19,103,42923,2,0,L|19:211,1,90,8|0,0:0|0:0,0:0:0:0:
41,271,43605,6,0,B|70:318|126:339|180:326|214:292,1,180,10|8,0:1|0:0,0:0:0:0:
272,208,44798,2,0,L|282:62,1,135,10|0,0:1|0:0,0:0:0:0:
360,96,45650,2,0,L|352:197,1,90,8|0,0:0|0:0,0:0:0:0:
272,208,46332,6,0,B|214:240|147:233|98:197,1,180,2|10,0:0|0:0,0:0:0:0:
196,63,47696,1,2,0:0:0:0:
354,97,48378,2,0,L|367:193,1,90,10|0,0:0|0:0,0:0:0:0:
432,232,49059,6,0,B|402:275|342:284|297:250|286:205,1,180,4|10,0:0|0:0,0:0:0:0:
268,132,50082,1,0,0:0:0:0:
221,67,50423,2,0,B|127:108|140:28|32:74,1,180,2|10,0:0|0:0,0:0:0:0:
0,134,51446,1,0,0:0:0:0:
47,199,51787,6,0,B|141:240|128:160|236:206,1,180,2|10,0:0|0:0,0:0:0:0:
378,238,53150,2,0,B|432:246|481:197|468:133|424:107,1,180,2|8,0:0|0:0,0:0:0:0:
375,62,54173,1,0,0:0:0:0:
296,83,54514,6,0,L|206:86,1,90,10|2,0:1|0:0,0:0:0:0:
147,142,55196,2,0,B|188:167|188:167|293:164,1,135,8|10,0:0|0:1,0:0:0:0:
355,162,56048,1,8,0:1:0:0:
432,184,56389,2,0,L|443:337,1,135,10|8,0:1|0:0,0:0:0:0:
368,354,57241,5,4,0:0:0:0:
256,192,57412,12,8,59969,0:1:0:0:
75,252,61332,6,0,B|108:272|148:266|174:243,1,90,4|8,0:0|0:0,0:0:0:0:
232,214,62014,2,0,B|283:212|332:214,1,90,8|8,0:1|0:0,0:0:0:0:
348,290,62696,2,0,B|393:272|413:220|393:177,2,135,0|0|8,0:0|0:0|0:0,0:0:0:0:
272,320,64059,6,0,B|226:318|181:320,1,90,2|8,0:0|0:0,0:0:0:0:
106,289,64741,2,0,B|97:221|100:153,2,135,8|0|10,0:1|0:0|0:0,0:0:0:0:
164,345,66105,2,0,L|208:345|253:345,1,90,10|8,0:1|0:0,0:0:0:0:
322,301,66787,6,0,B|357:283|399:290|425:315,1,90,4|8,0:0|0:0,0:0:0:0:
469,356,67469,1,8,0:1:0:0:
498,280,67809,1,8,0:0:0:0:
439,223,68150,2,0,B|445:173|439:125,1,90,0|10,0:0|0:0,0:0:0:0:
384,73,68832,1,2,0:0:0:0:
314,114,69173,1,10,0:0:0:0:
254,59,69514,6,0,B|222:45|188:44|157:53,1,90,4|8,0:0|0:0,0:0:0:0:
94,90,70196,2,0,L|83:226,1,135,2|2,0:0|0:0,0:0:0:0:
139,282,71048,1,0,0:0:0:0:
209,242,71389,2,0,B|259:224|310:230|352:253,1,135,6|8,0:0|0:0,0:0:0:0:
392,309,72241,6,0,B|421:283|427:241|411:209,1,90,6|8,0:0|0:0,0:0:0:0:
359,169,72923,2,0,B|312:149|262:153,1,90,8|8,0:1|0:0,0:0:0:0:
197,186,73605,2,0,L|186:338,2,135,8|0|8,0:1|0:0|0:0,0:0:0:0:
136,131,74969,6,0,L|143:26,1,90,0|8,0:0|0:0,0:0:0:0:
219,17,75650,2,0,B|294:11|294:11|355:44,1,135,8|2,0:1|0:0,0:0:0:0:
388,109,76503,1,2,0:0:0:0:
353,182,76844,2,0,B|278:188|278:188|217:155,1,135,2|10,0:0|0:0,0:0:0:0:
154,119,77696,6,0,B|107:107|59:111,1,90,4|8,0:0|0:0,0:0:0:0:
14,174,78378,2,0,B|10:219|10:264,1,90,8|8,0:1|0:0,0:0:0:0:
57,329,79059,2,0,B|150:359|141:289|243:322,1,180,0|0,0:0|0:0,0:0:0:0:
310,339,80082,1,8,0:0:0:0:
386,312,80423,6,0,L|393:210,1,90,4|8,0:0|0:0,0:0:0:0:
321,181,81105,2,0,L|328:79,1,90,10|8,0:1|0:0,0:0:0:0:
381,30,81787,2,0,B|350:4|307:4|277:26,1,90,2|8,0:0|0:0,0:0:0:0:
221,46,82469,2,0,B|171:53|123:48,1,90,10|8,0:1|0:0,0:0:0:0:
54,74,83150,6,0,L|41:220,1,135,4|10,0:0|0:1,0:0:0:0:
94,270,84003,1,10,0:0:0:0:
169,241,84344,2,0,B|220:229|271:238|313:260,2,135,6|8|8,0:0|0:0|0:3,0:0:0:0:
108,135,85878,5,4,0:0:0:0:
386,79,87071,2,0,B|416:125|409:183|377:221,1,135,0|0,0:0|0:0,0:0:0:0:
333,267,87923,1,10,0:0:0:0:
185,334,88605,6,0,B|152:345|118:340|91:325,1,90,4|10,0:0|0:0,0:0:0:0:
43,267,89287,2,0,L|40:177,1,90,10|10,0:1|0:0,0:0:0:0:
96,118,89969,1,2,0:0:0:0:
32,67,90309,2,0,B|65:22|132:17|176:62|177:113,1,180,10|10,0:0|0:0,0:0:0:0:
233,148,91332,6,0,L|330:155,1,90,2|10,0:0|0:0,0:0:0:0:
341,75,92014,2,0,L|251:68,1,90,10|10,0:1|0:0,0:0:0:0:
174,93,92696,1,2,0:0:0:0:
107,138,93037,2,0,B|66:195|68:268|104:322,1,180,10|10,0:0|0:0,0:0:0:0:
163,353,94059,6,0,B|211:360|259:361,1,90,4|10,0:0|0:0,0:0:0:0:
324,323,94741,2,0,B|370:324|414:330,1,90,10|10,0:1|0:0,0:0:0:0:
489,301,95423,2,0,B|499:245|491:190,2,90,10|10|10,0:1|0:0|0:1,0:0:0:0:
413,330,96446,1,8,0:0:0:0:
348,280,96787,6,0,B|300:273|252:272,1,90,10|10,0:1|0:0,0:0:0:0:
190,316,97469,2,0,B|168:284|173:242|198:216,1,90,2|10,0:1|0:0,0:0:0:0:
236,167,98150,1,10,0:1:0:0:
304,124,98491,2,0,B|275:79|214:69|168:104|157:150,1,180,10|8,0:0|0:1,0:0:0:0:
139,219,99514,6,0,L|132:318,1,90,4|8,0:0|0:0,0:0:0:0:
212,325,100196,2,0,L|218:235,1,90,8|8,0:1|0:0,0:0:0:0:
295,210,100878,1,0,0:0:0:0:
356,262,101219,2,0,B|401:291|458:283|496:245|506:201,1,180,8|8,0:0|0:0,0:0:0:0:
508,128,102241,5,4,0:0:0:0:
449,72,102582,2,0,L|357:64,1,90,8|8,0:0|0:1,0:0:0:0:
286,28,103264,1,8,0:0:0:0:
239,94,103605,2,0,L|237:195,2,90,0|8|0,0:0|0:0|0:0,0:0:0:0:
168,52,104628,1,8,0:0:0:0:
118,116,104969,6,0,L|116:217,1,90,4|8,0:0|0:0,0:0:0:0:
150,279,105650,1,0,0:0:0:0:
222,242,105991,1,8,0:0:0:0:
264,311,106332,2,0,B|308:329|355:328,2,90,0|8|8,0:0|0:0|0:1,0:0:0:0:
222,242,107355,1,8,0:0:0:0:
288,195,107696,6,0,L|292:103,1,90,4|8,0:0|0:0,0:0:0:0:
233,48,108378,1,8,0:1:0:0:
309,20,108719,1,8,0:0:0:0:
367,76,109059,2,0,L|460:85,2,90,0|8|0,0:0|0:0|0:0,0:0:0:0:
291,105,110082,1,8,0:0:0:0:
324,178,110423,6,0,B|293:195|257:186|236:161,2,90,4|8|8,0:0|0:0|0:1,0:0:0:0:
402,157,111446,1,8,0:0:0:0:
470,200,111787,2,0,L|475:299,1,90,0|8,0:0|0:0,0:0:0:0:
406,334,112469,2,0,B|371:344|337:344|304:336,1,90,8|8,0:1|0:0,0:0:0:0:
245,300,113150,5,4,0:0:0:0:
287,231,113491,2,0,B|313:184|313:184|302:84,1,135,8|8,0:0|0:1,0:0:0:0:
248,43,114344,2,0,B|222:90|222:90|233:190,1,135,4|8,0:0|0:1,0:0:0:0:
287,231,115196,2,0,B|321:246|358:246|389:234,1,90,8|10,0:1|0:1,0:0:0:0:
439,188,115878,6,0,B|463:215|463:255|441:281,1,90,4|8,0:0|0:0,0:0:0:0:
393,331,116559,1,8,0:1:0:0:
315,308,116900,1,8,0:0:0:0:
287,231,117241,2,0,L|290:126,2,90,0|8|8,0:0|0:0|0:1,0:0:0:0:
227,286,118264,1,8,0:0:0:0:
171,227,118605,6,0,B|125:217|80:230,1,90,4|8,0:0|0:0,0:0:0:0:
11,269,119287,1,8,0:1:0:0:
14,188,119628,1,8,0:0:0:0:
81,143,119969,2,0,L|77:48,1,90,0|8,0:0|0:0,0:0:0:0:
155,33,120650,2,0,L|158:122,1,90,8|8,0:1|0:0,0:0:0:0:
216,179,121332,5,4,0:0:0:0:
162,240,121673,2,0,B|194:269|242:271|278:244|291:208,1,135,8|10,0:0|0:1,0:0:0:0:
342,174,122525,2,0,L|330:16,1,135,2|8,0:0|0:0,0:0:0:0:
253,16,123378,2,0,B|219:6|185:13|159:31,1,90,10|8,0:1|0:0,0:0:0:0:
96,68,124059,6,0,B|62:78|28:71|2:53,2,90,4|8|8,0:0|0:0|0:1,0:0:0:0:
166,108,125082,1,10,0:0:0:0:
102,158,125423,2,0,L|93:255,1,90,8|8,0:1|0:0,0:0:0:0:
137,316,126105,1,10,0:1:0:0:
212,345,126446,1,10,0:1:0:0:
266,284,126787,6,0,B|300:266|338:267|370:282,1,90,4|10,0:0|0:0,0:0:0:0:
420,321,127469,1,8,0:1:0:0:
468,256,127809,1,8,0:0:0:0:
401,209,128150,2,0,L|394:110,1,90,2|10,0:0|0:0,0:0:0:0:
328,71,128832,1,8,0:1:0:0:
253,103,129173,1,10,0:0:0:0:
311,159,129514,6,0,B|284:190|241:196|205:178|187:148,1,135,2|2,0:0|0:0,0:0:0:0:
139,95,130366,1,10,0:1:0:0:
84,155,130707,2,0,L|77:292,1,135,2|8,0:0|0:0,0:0:0:0:
137,344,131559,2,0,B|174:361|214:356|245:337,1,90,4|8,0:0|0:0,0:0:0:0:
300,317,132241,6,0,B|344:303|390:310,1,90,4|8,0:0|0:0,0:0:0:0:
445,367,132923,2,0,B|473:343|477:302|457:274,1,90,8|8,0:1|0:0,0:0:0:0:
407,226,133605,2,0,B|361:220|317:226,2,90,2|10|0,0:0|0:0|0:0,0:0:0:0:
472,178,134628,1,8,0:0:0:0:
410,125,134969,6,0,L|417:28,1,90,4|10,0:0|0:0,0:0:0:0:
341,5,135650,1,10,0:1:0:0:
266,36,135991,1,10,0:0:0:0:
313,101,136332,1,8,0:1:0:0:
244,144,136673,2,0,L|250:233,1,90,8|8,0:0|0:1,0:0:0:0:
201,298,137355,1,8,0:0:0:0:
271,337,137696,5,6,0:0:0:0:
256,192,137866,12,0,140423,0:0:0:0:
82,266,149969,6,0,B|130:313|208:307|250:256,1,180,0|0,0:0|0:0,0:0:0:0:
290,196,150991,1,0,0:0:0:0:
226,145,151332,2,0,L|231:46,1,90,4|0,0:0|0:0,0:0:0:0:
306,27,152014,1,0,0:0:0:0:
365,82,152355,1,0,0:0:0:0:
314,145,152696,6,0,B|356:178|418:167|449:119|444:72,1,180,,,0:0:0:0:
408,9,153719,1,0,0:0:0:0:
334,41,154059,2,0,B|278:43|224:40,1,90,0|0,0:0|0:0,0:0:0:0:
169,72,154741,1,0,0:0:0:0:
213,139,155082,1,0,0:0:0:0:
145,184,155423,6,0,B|171:221|219:233|260:215|282:182,2,135,0|0|0,0:0|0:0|0:0,0:0:0:0:
95,119,156787,1,0,0:0:0:0:
47,184,157128,2,0,B|31:231|34:279,1,90,0|0,0:0|0:0,0:0:0:0:
88,331,157809,1,0,0:0:0:0:
162,300,158150,6,0,B|215:290|268:300,1,90,0|0,0:0|0:0,0:0:0:0:
316,345,158832,2,0,B|338:317|337:279|318:253,1,90,0|0,0:0|0:0,0:0:0:0:
259,209,159514,2,0,B|229:148|234:81|266:28,1,180,0|0,0:0|0:0,0:0:0:0:
339,16,160537,1,0,0:0:0:0:
387,81,160878,5,0,0:0:0:0:
357,240,161559,2,0,B|326:251|293:247|267:233,1,90,0|0,0:0|0:0,0:0:0:0:
188,228,162241,6,0,B|137:222|88:227,1,90,4|8,0:0|0:0,0:0:0:0:
27,266,162923,2,0,B|11:237|14:203|32:177,1,90,8|8,0:1|0:0,0:0:0:0:
101,142,163605,2,0,B|111:94|101:48|77:11,2,135,0|0|8,0:0|0:0|0:0,0:0:0:0:
29,180,164968,6,0,B|47:218|89:234|126:221,1,90,2|8,0:0|0:0,0:0:0:0:
182,232,165650,2,0,L|334:241,2,135,8|0|10,0:1|0:0|0:0,0:0:0:0:
152,156,167014,2,0,B|153:102|164:52,1,90,10|8,0:1|0:0,0:0:0:0:
235,33,167696,6,0,B|270:15|312:22|338:47,1,90,4|8,0:0|0:0,0:0:0:0:
388,80,168378,1,8,0:1:0:0:
322,127,168718,1,8,0:0:0:0:
368,193,169059,2,0,B|336:217|292:211|266:184,1,90,0|10,0:0|0:0,0:0:0:0:
210,161,169741,1,10,0:1:0:0:
183,237,170082,1,10,0:0:0:0:
117,188,170423,6,0,L|123:84,1,90,4|8,0:0|0:0,0:0:0:0:
94,21,171105,2,0,B|45:61|45:61|39:153,1,135,2|4,0:0|0:0,0:0:0:0:
38,213,171957,1,0,0:0:0:0:
75,284,172298,2,0,L|223:300,1,135,4|8,0:0|0:0,0:0:0:0:
289,307,173150,6,0,B|308:278|308:244|295:215,1,90,4|8,0:0|0:0,0:0:0:0:
232,171,173832,2,0,L|237:78,1,90,8|8,0:1|0:0,0:0:0:0:
301,32,174514,2,0,B|358:17|415:19|467:36,2,135,8|0|8,0:1|0:0|0:0,0:0:0:0:
236,81,175878,6,0,B|182:88|129:79,1,90,0|8,0:0|0:0,0:0:0:0:
92,20,176559,2,0,B|59:47|50:94|71:132|104:150,1,135,8|2,0:1|0:0,0:0:0:0:
138,202,177412,1,2,0:0:0:0:
203,249,177753,2,0,B|278:255|278:255|330:226,1,135,2|10,0:0|0:0,0:0:0:0:
403,190,178605,6,0,L|404:81,1,90,4|8,0:0|0:0,0:0:0:0:
333,58,179287,2,0,L|241:50,1,90,8|8,0:1|0:0,0:0:0:0:
164,69,179968,2,0,B|151:249,1,180,0|0,0:0|0:0,0:0:0:0:
206,307,180991,1,8,0:0:0:0:
276,266,181332,6,0,B|315:258|353:265|383:284,1,90,4|10,0:0|0:0,0:0:0:0:
439,303,182014,2,0,L|456:202,1,90,10|8,0:1|0:0,0:0:0:0:
398,154,182696,2,0,L|381:53,1,90,2|10,0:0|0:0,0:0:0:0:
312,24,183378,2,0,B|262:15|214:26,1,90,10|8,0:1|0:0,0:0:0:0:
148,57,184059,6,0,L|135:203,1,135,4|10,0:0|0:1,0:0:0:0:
192,249,184912,1,10,0:0:0:0:
259,204,185253,2,0,L|399:194,2,135,6|8|8,0:0|0:0|0:3,0:0:0:0:
182,109,186787,5,4,0:0:0:0:
166,249,189173,5,2,0:0:0:0:
216,312,189514,1,0,0:0:0:0:
303,85,190537,1,0,0:0:0:0:
355,146,190878,2,0,L|350:240,1,90,0|0,0:0|0:0,0:0:0:0:
319,310,191559,2,0,B|285:324|250:324|218:314,1,90,0|8,0:0|0:0,0:0:0:0:
159,278,192241,6,0,B|111:282|63:282,1,90,4|8,0:0|0:0,0:0:0:0:
6,230,192923,1,10,0:1:0:0:
74,186,193264,1,8,0:0:0:0:
106,111,193605,2,0,L|98:15,2,90,10|10|10,0:1|0:1|0:1,0:0:0:0:
163,167,194628,1,8,0:0:0:0:
208,100,194969,6,0,B|241:123|251:166|235:200,1,90,10|8,0:1|0:0,0:0:0:0:
197,246,195650,1,8,0:1:0:0:
265,289,195991,1,10,0:0:0:0:
322,231,196332,2,0,L|419:239,1,90,8|8,0:1|0:0,0:0:0:0:
469,295,197014,2,0,B|502:269|505:220|475:190,1,90,8|10,0:1|0:0,0:0:0:0:
458,139,197696,6,0,B|392:97|390:155|318:109,1,135,4|10,0:0|0:0,0:0:0:0:
275,55,198548,1,8,0:0:0:0:
233,124,198889,1,4,0:0:0:0:
292,274,199571,2,0,B|327:289|365:282|392:259,1,90,2|8,0:1|0:0,0:0:0:0:
447,226,200253,1,6,0:0:0:0:
256,192,200423,12,0,204940,0:0:0:0:
